Direct Download Beauty4K - Bella C 720p wmv 19 May 2016 torrent

download torrent
Size: 1.7 GB
Downloaded: 101
Hits: 171

Video
ID                          : 2
Format                      : VC-1
Format profile              : [email protected]
Codec ID                    : WMV3
Codec ID/Info               : Windows Media Video 9
Codec ID/Hint               : WMV3
Description of the codec    : Windows Media Video 9 - Professional
Duration                    : 48mn 15s
Bit rate mode               : Variable
Bit rate                    : 5 000 Kbps
Width                       : 1 280 pixels
Height                      : 720 pixels
Display aspect ratio        : 16:9
Frame rate                  : 25.000 fps
Color space                 : YUV
Chroma subsampling          : 4:2:0
Bit depth                   : 8 bits
Scan type                   : Progressive
Compression mode            : Lossy
Bits/(Pixel*Frame)          : 0.217
Stream size                 : 1.69 GiB (97%)
Language                    : Russian
NumberOfFrames              : 72369
Audio
ID                          : 1
Format                      : WMA
Format profile              : Pro
Codec ID                    : 162
Codec ID/Info               : Windows Media Audio
Description of the codec    : Windows Media Audio 10 Professional - 128 kbps, 44 kHz, 2 channel 24 bit 2-pass VBR
Duration                    : 48mn 15s
Bit rate mode               : Variable
Bit rate                    : 128 Kbps
Channel(s)                  : 2 channels
Sampling rate               : 44.1 KHz
Bit depth                   : 24 bits
Stream size                 : 44.2 MiB (2%)
Language                    : Russian
NumberOfFrames              : 7789


NEW adulttorrent.org - Exclusive video only

Related Torrents
Torrent Name   AGE FILES SIZE

 Date: 06/01/18 00:15   in : XXX 

529 days 1

 Date: 06/01/18 00:12   in : XXX 

529 days 1

 Date: 06/01/18 00:09   in : XXX 

529 days 1

 Date: 06/01/18 00:07   in : XXX 

529 days 1

 Date: 06/01/18 00:04   in : XXX 

529 days 1

 Date: 06/01/18 00:03   in : XXX 

529 days 1

 Date: 06/01/18 00:02   in : XXX 

529 days 1

 Date: 06/01/18 00:02   in : XXX 

529 days 1

 Date: 05/31/18 23:59   in : XXX 

529 days 1

 Date: 05/31/18 23:51   in : XXX 

529 days 1

 Date: 05/31/18 23:51   in : XXX 

529 days 1

 Date: 05/31/18 23:50   in : XXX 

529 days 1