Direct Download Bad.Lesbian.5.Temptation.XXX.DVDRip.x264-UPPERCUT torrent

download torrent
Size: 1.2 GB
Downloaded: 261
Hits: 385

W
#
#   H                                \".
F              F                 [email protected]! .
%    .        @ J              #    .
:     .      @               D    J
.    #    J        #^   .d
#    ..Jgd    gg..,      \"     .
Jg                    ^      .
m,    .
, .
.     #\"\"!  .
@=      .d
p   .
,  .
.d
t        .d
B
S                                                      DT
K                                                      $  .W
,W
,.
&,  ?
a, ?
,
b. . . . . . . . . . . . . . . . . . . . . . . . . . . ne
_   _ ____  ____  _____ ____   ____ _   _ _____          .g
_   _  ____  _  / ___   _   _         .e
_)  _)   _  _)                     .r
_   __/  __/ ___  _ < ___ _               .
PRESENTS                               .
Bad.Lesbian.5.Temptation.XXX.DVDRip.x264-UPPERCUT          .
Release date: 18/06/2016            Runtime    : 125 Mins      .
Store date  : 00/00/2016            Genre      : All Girl
Prod year   : 2016                  Studio   : Girlfriends Films
Source      : NTSC DVD
Format      : x264 crf-19
Size        : 27x50MB
Resolution  : 720x404
Audio       : AAC-LC
http://www.cduniverse.com/productinfo.asp?pid=10328906
Plot: Good girls learn to be Bad Lesbians!
Starring : Aaliyah Love, Sovereign Syre, Ava Dalush,
Jenna J Ross, Misha Cross, Jeanie Marie Sullivan,
Prinzzess
Notes: the release date over at cduniverse is obv incorrect.
Greetings to everyone in the xxx scene!
b.

Video
ID                                       : 1
Format                                   : AVC
Format/Info                              : Advanced Video Codec
Format profile                           : [email protected]
Format settings, CABAC                   : Yes
Format settings, ReFrames                : 5 frames
Codec ID                                 : avc1
Codec ID/Info                            : Advanced Video Coding
Duration                                 : 2h 4mn
Bit rate                                 : 1 233 Kbps
Width                                    : 720 pixels
Height                                   : 404 pixels
Display aspect ratio                     : 16:9
Frame rate mode                          : Constant
Frame rate                               : 29.970 (30000/1001) fps
Color space                              : YUV
Chroma subsampling                       : 4:2:0
Bit depth                                : 8 bits
Scan type                                : Progressive
Bits/(Pixel*Frame)                       : 0.141
Stream size                              : 1.08 GiB (88%)
Writing library                          : x264 core 148 r2692 64f4e24
Encoding settings                        : cabac=1 / ref=5 / deblock=1:0:0 / analyse=0x3:0x113 / me=umh / subme=8 / psy=1 / psy_rd=1.00:0.00 / mixed_ref=1 / me_range=16 / chroma_me=1 / trellis=1 / 8x8dct=1 / cqm=0 / deadzone=21,11 / fast_pskip=0 / chroma_qp_offset=-2 / threads=6 / lookahead_threads=1 / sliced_threads=0 / nr=0 / decimate=1 / interlaced=0 / bluray_compat=0 / constrained_intra=0 / bframes=3 / b_pyramid=2 / b_adapt=2 / b_bias=0 / direct=3 / weightb=1 / open_gop=0 / weightp=2 / keyint=300 / keyint_min=29 / scenecut=40 / intra_refresh=0 / rc_lookahead=50 / rc=crf / mbtree=1 / crf=19.0 / qcomp=0.60 / qpmin=0 / qpmax=69 / qpstep=4 / ip_ratio=1.40 / aq=1:1.00
Encoded date                             : UTC 1904-01-01 00:00:00
Tagged date                              : UTC 1904-01-01 00:00:00
Audio
ID                                       : 2
Format                                   : AAC
Format/Info                              : Advanced Audio Codec
Format profile                           : LC
Codec ID                                 : 40
Duration                                 : 2h 4mn
Bit rate mode                            : Variable
Bit rate                                 : 153 Kbps
Maximum bit rate                         : 182 Kbps
Channel(s)                               : 2 channels
Channel positions                        : Front: L R
Sampling rate                            : 48.0 KHz
Frame rate                               : 46.875 fps (1024 spf)
Compression mode                         : Lossy
Stream size                              : 137 MiB (11%)
Default                                  : Yes
Alternate group                          : 1
Encoded date                             : UTC 1904-01-01 00:00:00
Tagged date                              : UTC 1904-01-01 00:00:00


NEW adulttorrent.org - Exclusive video only

Related Torrents
Torrent Name   AGE FILES SIZE

 Date: 06/01/18 00:15   in : XXX 

500 days 1

 Date: 06/01/18 00:12   in : XXX 

500 days 1

 Date: 06/01/18 00:09   in : XXX 

500 days 1

 Date: 06/01/18 00:07   in : XXX 

500 days 1

 Date: 06/01/18 00:04   in : XXX 

500 days 1

 Date: 06/01/18 00:03   in : XXX 

500 days 1

 Date: 06/01/18 00:02   in : XXX 

500 days 1

 Date: 06/01/18 00:02   in : XXX 

500 days 1

 Date: 05/31/18 23:59   in : XXX 

500 days 1

 Date: 05/31/18 23:51   in : XXX 

500 days 1

 Date: 05/31/18 23:51   in : XXX 

500 days 1

 Date: 05/31/18 23:50   in : XXX 

500 days 1