Direct Download Cosmid.15.12.16.Ashlynn.Brooks.With.A.Fucking.Sample.XXX.INTERNAL.720p.MP4-KTR torrent

download torrent
Size: 550.2 MB
Downloaded: 69
Hits: 230

Cosmid.15.12.16.Ashlynn.Brooks.With.A.Fucking.Sample.XXX.
INTERNAL.720p.MP4-KTR
Genre.......: Adult
Files.......: 39
Video.......: MP4
Date........: 2015-12-16
URL.........: http://www.cosmid.net/

Video
ID                                       : 1
Format                                   : AVC
Format/Info                              : Advanced Video Codec
Format profile                           : [email protected]
Format settings, CABAC                   : No
Format settings, ReFrames                : 2 frames
Format settings, GOP                     : M=2, N=24
Codec ID                                 : avc1
Codec ID/Info                            : Advanced Video Coding
Duration                                 : 9mn 52s
Bit rate                                 : 7 672 Kbps
Width                                    : 1 280 pixels
Clean aperture width                     : 1 248 pixels
Height                                   : 720 pixels
Clean aperture height                    : 702 pixels
Display aspect ratio                     : 16:9
Frame rate mode                          : Constant
Frame rate                               : 29.970 (29970/1000) fps
Color space                              : YUV
Chroma subsampling                       : 4:2:0
Bit depth                                : 8 bits
Scan type                                : Progressive
Bits/(Pixel*Frame)                       : 0.278
Stream size                              : 542 MiB (99%)
Language                                 : English
Encoded date                             : UTC 2015-12-15 23:26:21
Tagged date                              : UTC 2015-12-15 23:26:32
Color range                              : Limited
Color primaries                          : BT.709
Transfer characteristics                 : BT.709
Matrix coefficients                      : BT.709
Audio
ID                                       : 2
Format                                   : AAC
Format/Info                              : Advanced Audio Codec
Format profile                           : LC
Codec ID                                 : 40
Duration                                 : 9mn 52s
Source duration                          : 9mn 52s
Bit rate mode                            : Constant
Bit rate                                 : 108 Kbps
Nominal bit rate                         : 128 Kbps
Channel(s)                               : 2 channels
Channel positions                        : Front: L R
Sampling rate                            : 48.0 KHz
Frame rate                               : 46.875 fps (1024 spf)
Compression mode                         : Lossy
Stream size                              : 7.66 MiB (1%)
Source stream size                       : 7.66 MiB (1%)
Language                                 : English
Encoded date                             : UTC 2015-12-15 23:26:21
Tagged date                              : UTC 2015-12-15 23:26:32
Other
ID                                       : 3
Type                                     : Time code
Format                                   : QuickTime TC
Duration                                 : 9mn 52s
Time code of first frame                 : 00:00:00:00
Time code, striped                       : Yes
Language                                 : English
Encoded date                             : UTC 2015-12-15 23:26:31
Tagged date                              : UTC 2015-12-15 23:26:32

Related Torrents
Torrent Name   AGE FILES SIZE

 Date: 06/19/18 14:40   in : Fetish 

4 days 2 3.2 GB

 Date: 06/19/18 13:54   in : Fetish 

4 days 1 587.5 MB

 Date: 06/19/18 08:03   in : Fetish 

4 days 1 1.2 GB

 Date: 06/18/18 19:13   in : Fetish 

5 days 1 857.2 MB

 Date: 06/18/18 18:33   in : Fetish 

5 days 1 708.4 MB

 Date: 06/14/18 20:23   in : Fetish 

9 days 1

 Date: 06/12/18 10:49   in : Fetish 

11 days 1 561 MB

 Date: 06/09/18 16:57   in : Fetish 

14 days 1 3.3 GB

 Date: 06/09/18 16:55   in : Fetish 

14 days 1 3.3 GB

 Date: 06/05/18 17:25   in : Fetish 

18 days 1 38.6 MB

 Date: 06/05/18 11:24   in : Fetish 

18 days 1 346 MB

 Date: 06/01/18 15:41   in : Fetish 

22 days 1 261.1 MB