Direct Download ATKGalleria.16.04.04.Dana.Wegron.Masturbation.XXX.1080p.MP4.KTR torrent

download torrent
Size: 523.7 MB
Downloaded: 66
Hits: 138


Video
ID                                       : 1
Format                                   : AVC
Format/Info                              : Advanced Video Codec
Format profile                           : [email protected]
Format settings, CABAC                   : Yes
Format settings, ReFrames                : 3 frames
Codec ID                                 : avc1
Codec ID/Info                            : Advanced Video Coding
Duration                                 : 11mn 55s
Bit rate mode                            : Variable
Bit rate                                 : 5 995 Kbps
Maximum bit rate                         : 60.0 Mbps
Width                                    : 1 920 pixels
Height                                   : 1 080 pixels
Display aspect ratio                     : 16:9
Frame rate mode                          : Variable
Frame rate                               : 29.970 fps
Minimum frame rate                       : 29.970 fps
Maximum frame rate                       : 30.000 fps
Standard                                 : NTSC
Color space                              : YUV
Chroma subsampling                       : 4:2:0
Bit depth                                : 8 bits
Scan type                                : Progressive
Bits/(Pixel*Frame)                       : 0.096
Stream size                              : 512 MiB (98%)
Color primaries                          : BT.709-5, BT.1361, IEC 61966-2-4, SMPTE RP177
Transfer characteristics                 : BT.709-5, BT.1361
Matrix coefficients                      : BT.709-5, BT.1361, IEC 61966-2-4 709, SMPTE RP177
Audio
ID                                       : 2
Format                                   : AAC
Format/Info                              : Advanced Audio Codec
Format profile                           : LC
Codec ID                                 : 40
Duration                                 : 11mn 56s
Bit rate mode                            : Constant
Bit rate                                 : 128 Kbps
Channel(s)                               : 2 channels
Channel positions                        : Front: L R
Sampling rate                            : 48.0 KHz
Compression mode                         : Lossy
Delay relative to video                  : -999ms
Stream size                              : 10.9 MiB (2%)


NEW adulttorrent.org - Exclusive video only

Related Torrents
Torrent Name   AGE FILES SIZE

 Date: 06/01/18 00:15   in : XXX 

540 days 1

 Date: 06/01/18 00:12   in : XXX 

540 days 1

 Date: 06/01/18 00:09   in : XXX 

540 days 1

 Date: 06/01/18 00:07   in : XXX 

540 days 1

 Date: 06/01/18 00:04   in : XXX 

540 days 1

 Date: 06/01/18 00:03   in : XXX 

540 days 1

 Date: 06/01/18 00:02   in : XXX 

540 days 1

 Date: 06/01/18 00:02   in : XXX 

540 days 1

 Date: 05/31/18 23:59   in : XXX 

540 days 1

 Date: 05/31/18 23:51   in : XXX 

540 days 1

 Date: 05/31/18 23:51   in : XXX 

540 days 1

 Date: 05/31/18 23:50   in : XXX 

540 days 1