Direct Download AssholeFever - Mona Kim - Boxing With The Best mp4 torrent

download torrent
Size: 251.1 MB
Downloaded: 83
Hits: 227

Horny Mona Kim gets her boxing gloves on the rumble with the boys. She\'s got an out-of-this-world ass and the trio is about to take it into anal. They do it right there in the boxing management office. Good thing the boss was out to lunch.

Format                                   : MPEG-4
Format profile                           : Base Media
Codec ID                                 : isom
File size                                : 251 MiB
Duration                                 : 26mn 10s
Overall bit rate                         : 1 341 Kbps
Writing application                      : Lavf56.40.101
Video
ID                                       : 1
Format                                   : AVC
Format/Info                              : Advanced Video Codec
Format profile                           : [email protected]
Format settings, CABAC                   : Yes
Format settings, ReFrames                : 4 frames
Codec ID                                 : avc1
Codec ID/Info                            : Advanced Video Coding
Duration                                 : 26mn 10s
Bit rate                                 : 1 200 Kbps
Width                                    : 720 pixels
Height                                   : 400 pixels
Display aspect ratio                     : 16:9
Frame rate mode                          : Constant
Frame rate                               : 29.970 fps
Color space                              : YUV
Chroma subsampling                       : 4:2:0
Bit depth                                : 8 bits
Scan type                                : Progressive
Bits/(Pixel*Frame)                       : 0.139
Stream size                              : 225 MiB (90%)
Writing library                          : x264 core 148
Encoding settings                        : cabac=1 / ref=3 / deblock=1:0:0 / analyse=0x3:0x113 / me=umh / subme=7 / psy=1 / psy_rd=1.00:0.00 / mixed_ref=1 / me_range=16 / chroma_me=1 / trellis=1 / 8x8dct=1 / cqm=0 / deadzone=21,11 / fast_pskip=1 / chroma_qp_offset=-2 / threads=12 / lookahead_threads=2 / sliced_threads=0 / nr=0 / decimate=1 / interlaced=0 / bluray_compat=0 / constrained_intra=0 / bframes=3 / b_pyramid=2 / b_adapt=1 / b_bias=0 / direct=1 / weightb=1 / open_gop=0 / weightp=2 / keyint=250 / keyint_min=25 / scenecut=40 / intra_refresh=0 / rc_lookahead=40 / rc=abr / mbtree=1 / bitrate=1200 / ratetol=1.0 / qcomp=0.60 / qpmin=0 / qpmax=69 / qpstep=4 / ip_ratio=1.40 / aq=1:1.00
Audio
ID                                       : 2
Format                                   : AAC
Format/Info                              : Advanced Audio Codec
Format profile                           : LC
Codec ID                                 : 40
Duration                                 : 26mn 10s
Duration_LastFrame                       : -10ms
Bit rate mode                            : Constant
Bit rate                                 : 128 Kbps
Channel(s)                               : 2 channels
Channel positions                        : Front: L R
Sampling rate                            : 44.1 KHz
Compression mode                         : Lossy
Stream size                              : 24.0 MiB (10%)
Language                                 : English


NEW adulttorrent.org - Exclusive video only

Related Torrents
Torrent Name   AGE FILES SIZE

 Date: 06/01/18 00:15   in : XXX 

507 days 1

 Date: 06/01/18 00:12   in : XXX 

507 days 1

 Date: 06/01/18 00:09   in : XXX 

507 days 1

 Date: 06/01/18 00:07   in : XXX 

507 days 1

 Date: 06/01/18 00:04   in : XXX 

507 days 1

 Date: 06/01/18 00:03   in : XXX 

507 days 1

 Date: 06/01/18 00:02   in : XXX 

507 days 1

 Date: 06/01/18 00:02   in : XXX 

507 days 1

 Date: 05/31/18 23:59   in : XXX 

507 days 1

 Date: 05/31/18 23:51   in : XXX 

507 days 1

 Date: 05/31/18 23:51   in : XXX 

507 days 1

 Date: 05/31/18 23:50   in : XXX 

507 days 1