Direct Download TonightsGirlfriend.Dana.DeArmond.mp4s torrent

download torrent
Size: 417.2 MB
Downloaded: 29
Hits: 93


Video
ID                                       : 1
Format                                   : AVC
Format/Info                              : Advanced Video Codec
Format profile                           : [email protected]
Format settings, CABAC                   : Yes
Format settings, ReFrames                : 4 frames
Codec ID                                 : avc1
Codec ID/Info                            : Advanced Video Coding
Duration                                 : 58mn 11s
Bit rate                                 : 900 Kbps
Width                                    : 640 pixels
Height                                   : 360 pixels
Display aspect ratio                     : 16:9
Frame rate mode                          : Constant
Frame rate                               : 24.000 fps
Color space                              : YUV
Chroma subsampling                       : 4:2:0
Bit depth                                : 8 bits
Scan type                                : Progressive
Bits/(Pixel*Frame)                       : 0.163
Stream size                              : 375 MiB (90%)
Writing library                          : x264 core 136
Encoding settings                        : cabac=1 / ref=4 / deblock=1:0:0 / analyse=0x1:0x111 / me=hex / subme=6 / psy=1 / psy_rd=1.00:0.00 / mixed_ref=1 / me_range=16 / chroma_me=1 / trellis=1 / 8x8dct=0 / cqm=0 / deadzone=21,11 / fast_pskip=1 / chroma_qp_offset=-2 / threads=48 / lookahead_threads=2 / sliced_threads=0 / nr=0 / decimate=1 / interlaced=0 / bluray_compat=0 / constrained_intra=0 / bframes=3 / b_pyramid=0 / b_adapt=1 / b_bias=0 / direct=1 / weightb=1 / open_gop=0 / weightp=2 / keyint=150 / keyint_min=25 / scenecut=40 / intra_refresh=0 / rc_lookahead=40 / rc=2pass / mbtree=1 / bitrate=900 / ratetol=1.0 / qcomp=0.50 / qpmin=8 / qpmax=51 / qpstep=4 / cplxblur=20.0 / qblur=0.5 / ip_ratio=1.41 / aq=1:1.00
Language                                 : English
Audio
ID                                       : 2
Format                                   : AAC
Format/Info                              : Advanced Audio Codec
Format profile                           : LC
Codec ID                                 : 40
Duration                                 : 58mn 11s
Duration_LastFrame                       : -6ms
Bit rate mode                            : Constant
Bit rate                                 : 96.0 Kbps
Channel(s)                               : 2 channels
Channel positions                        : Front: L R
Sampling rate                            : 44.1 KHz
Compression mode                         : Lossy
Delay relative to video                  : -1ms
Stream size                              : 39.9 MiB (10%)
Language                                 : English


Related Torrents
Torrent Name   AGE FILES SIZE

 Date: 04/30/16 16:48   in : Threesome 

297 days 1 219.6 MB

 Date: 04/29/16 15:44   in : Threesome 

298 days 1

 Date: 04/29/16 06:23   in : Threesome 

298 days 3 929.2 MB

 Date: 04/28/16 03:18   in : Threesome 

299 days 1 840.8 MB

 Date: 04/27/16 15:27   in : Threesome 

300 days 2 267.1 MB

 Date: 04/27/16 10:41   in : Threesome 

300 days 1

 Date: 04/27/16 04:28   in : Threesome 

300 days 1 274.3 MB

 Date: 04/27/16 04:08   in : Threesome 

300 days 3 1.3 GB

 Date: 04/25/16 20:24   in : Threesome 

302 days 1 440.5 MB

 Date: 04/25/16 18:35   in : Threesome 

302 days 1

 Date: 04/25/16 17:18   in : Threesome 

302 days 1

 Date: 04/25/16 17:17   in : Threesome 

302 days 1 2.3 GB