Direct Download FakeAgent.Adriana.Nervous.shop.assistant.will.do.anthing.to.be.a.model.mp4 torrent

download torrent
Size: 848.2 MB
Downloaded: 12
Hits: 47


Video
ID                                       : 1
Format                                   : AVC
Format/Info                              : Advanced Video Codec
Format profile                           : [email protected]
Format settings, CABAC                   : Yes
Format settings, ReFrames                : 4 frames
Codec ID                                 : avc1
Codec ID/Info                            : Advanced Video Coding
Duration                                 : 40mn 7s
Bit rate                                 : 2 700 Kbps
Width                                    : 852 pixels
Height                                   : 480 pixels
Display aspect ratio                     : 16:9
Frame rate mode                          : Constant
Frame rate                               : 24.000 fps
Color space                              : YUV
Chroma subsampling                       : 4:2:0
Bit depth                                : 8 bits
Scan type                                : Progressive
Bits/(Pixel*Frame)                       : 0.275
Stream size                              : 778 MiB (92%)
Writing library                          : x264 core 136
Encoding settings                        : cabac=1 / ref=1 / deblock=1:0:0 / analyse=0x3:0x113 / me=hex / subme=2 / psy=1 / psy_rd=1.00:0.00 / mixed_ref=0 / me_range=16 / chroma_me=1 / trellis=0 / 8x8dct=1 / cqm=0 / deadzone=21,11 / fast_pskip=1 / chroma_qp_offset=0 / threads=48 / lookahead_threads=3 / sliced_threads=0 / nr=0 / decimate=1 / interlaced=0 / bluray_compat=0 / constrained_intra=0 / bframes=3 / b_pyramid=2 / b_adapt=1 / b_bias=0 / direct=1 / weightb=1 / open_gop=0 / weightp=1 / keyint=48 / keyint_min=4 / scenecut=40 / intra_refresh=0 / rc_lookahead=10 / rc=abr / mbtree=1 / bitrate=2700 / ratetol=1.0 / qcomp=0.60 / qpmin=0 / qpmax=69 / qpstep=4 / ip_ratio=1.40 / aq=1:1.00
Language                                 : English
Tagged date                              : UTC 2015-09-10 07:41:47
Audio
ID                                       : 2
Format                                   : AAC
Format/Info                              : Advanced Audio Codec
Format profile                           : LC
Codec ID                                 : 40
Duration                                 : 40mn 7s
Bit rate mode                            : Variable
Bit rate                                 : 111 Kbps
Maximum bit rate                         : 128 Kbps
Channel(s)                               : 2 channels
Channel positions                        : Front: L R
Sampling rate                            : 44.1 KHz
Compression mode                         : Lossy
Stream size                              : 31.9 MiB (4%)
Language                                 : English
Tagged date                              : UTC 2015-09-10 07:41:47

Related Torrents
Torrent Name   AGE FILES SIZE

 Date: 06/24/17 19:16   in : XXX  Porno Clips 

2 min 1

 Date: 06/24/17 19:14   in : XXX  Porno Clips 

4 min 1 323.5 MB

 Date: 06/24/17 19:13   in : XXX  Porno Clips 

5 min 1 404.9 MB

 Date: 06/24/17 19:12   in : XXX  Porno Clips 

6 min 1 120 MB

 Date: 06/24/17 19:12   in : XXX  Porno Clips 

7 min 1

 Date: 06/24/17 19:09   in : XXX  Porno Clips 

9 min 1 105.9 MB

 Date: 06/24/17 19:06   in : XXX  Porno Clips 

12 min 1

 Date: 06/24/17 19:04   in : XXX  Porno Clips 

14 min 1 259.4 MB

 Date: 06/24/17 19:03   in : XXX  Porno Clips 

16 min 1 596 MB

 Date: 06/24/17 19:02   in : XXX  Porno Clips 

16 min 1 180.1 MB

 Date: 06/24/17 19:01   in : XXX  Porno Clips 

17 min 1 522.8 MB

 Date: 06/24/17 19:00   in : XXX  Porno Clips 

19 min 6 138.7 MB