Direct Download GiveMePink.16.08.23.Jemma.Valentine.XXX.1080p.MP4-KTR torrent

download torrent
Size: 4.2 GB
Downloaded: 45
Hits: 212

GiveMePink.16.08.23.Jemma.Valentine.XXX.1080p.MP4-KTR
Genre.......: Adult
Files.......: 91
Video.......: MP4
Date........: 2016-08-23
URL.........: http://givemepink.com/

Video
ID                                       : 1
Format                                   : AVC
Format/Info                              : Advanced Video Codec
Format profile                           : [email protected]
Format settings, CABAC                   : No
Format settings, ReFrames                : 2 frames
Codec ID                                 : avc1
Codec ID/Info                            : Advanced Video Coding
Duration                                 : 49mn 31s
Bit rate mode                            : Variable
Bit rate                                 : 12.0 Mbps
Maximum bit rate                         : 14.0 Mbps
Width                                    : 1 920 pixels
Height                                   : 1 080 pixels
Display aspect ratio                     : 16:9
Frame rate mode                          : Constant
Frame rate                               : 29.970 (30000/1001) fps
Standard                                 : NTSC
Color space                              : YUV
Chroma subsampling                       : 4:2:0
Bit depth                                : 8 bits
Scan type                                : Progressive
Bits/(Pixel*Frame)                       : 0.193
Stream size                              : 4.16 GiB (99%)
Encoded date                             : UTC 1904-01-01 00:00:00
Tagged date                              : UTC 1904-01-01 00:00:00
Color range                              : Limited
Color primaries                          : BT.709
Transfer characteristics                 : BT.709
Matrix coefficients                      : BT.709
Audio
ID                                       : 2
Format                                   : AAC
Format/Info                              : Advanced Audio Codec
Format profile                           : LC
Codec ID                                 : 40
Duration                                 : 49mn 31s
Bit rate mode                            : Constant
Bit rate                                 : 157 Kbps
Channel(s)                               : 2 channels
Channel positions                        : Front: L R
Sampling rate                            : 48.0 KHz
Frame rate                               : 46.875 fps (1024 spf)
Compression mode                         : Lossy
Stream size                              : 55.8 MiB (1%)
Default                                  : Yes
Alternate group                          : 1
Encoded date                             : UTC 1904-01-01 00:00:00
Tagged date                              : UTC 1904-01-01 00:00:00


Related Torrents
Torrent Name   AGE FILES SIZE

 Date: 06/01/18 00:15   in : XXX 

143 days 1

 Date: 06/01/18 00:12   in : XXX 

143 days 1

 Date: 06/01/18 00:09   in : XXX 

143 days 1

 Date: 06/01/18 00:07   in : XXX 

143 days 1

 Date: 06/01/18 00:04   in : XXX 

143 days 1

 Date: 06/01/18 00:03   in : XXX 

143 days 1

 Date: 06/01/18 00:02   in : XXX 

143 days 1

 Date: 06/01/18 00:02   in : XXX 

143 days 1

 Date: 05/31/18 23:59   in : XXX 

143 days 1

 Date: 05/31/18 23:51   in : XXX 

143 days 1

 Date: 05/31/18 23:51   in : XXX 

143 days 1

 Date: 05/31/18 23:50   in : XXX 

143 days 1