Direct Download ATKExotics.16.03.20.Shane.Blair.Toys.XXX.1080p.MP4-KTR torrent

download torrent
Size: 533.4 MB
Downloaded: 25
Hits: 62

ATKExotics.16.03.20.Shane.Blair.Toys.XXX.1080p.MP4-KTR
Genre.......: Adult
Files.......: 38
Video.......: MP4
Date........: 2016-03-20
URL.........: http://www.atkexotics.com/

Video
ID                                       : 1
Format                                   : AVC
Format/Info                              : Advanced Video Codec
Format profile                           : [email protected]
Format settings, CABAC                   : Yes
Format settings, ReFrames                : 3 frames
Codec ID                                 : avc1
Codec ID/Info                            : Advanced Video Coding
Duration                                 : 12mn 9s
Bit rate mode                            : Variable
Bit rate                                 : 5 998 Kbps
Maximum bit rate                         : 60.0 Mbps
Width                                    : 1 920 pixels
Height                                   : 1 080 pixels
Display aspect ratio                     : 16:9
Frame rate mode                          : Variable
Frame rate                               : 29.970 (30000/1001) fps
Minimum frame rate                       : 29.970 fps
Maximum frame rate                       : 30.000 fps
Standard                                 : NTSC
Color space                              : YUV
Chroma subsampling                       : 4:2:0
Bit depth                                : 8 bits
Scan type                                : Progressive
Bits/(Pixel*Frame)                       : 0.097
Stream size                              : 522 MiB (98%)
Encoded date                             : UTC 1904-01-01 00:00:00
Tagged date                              : UTC 1904-01-01 00:00:00
Color range                              : Limited
Color primaries                          : BT.709
Transfer characteristics                 : BT.709
Matrix coefficients                      : BT.709
Audio
ID                                       : 2
Format                                   : AAC
Format/Info                              : Advanced Audio Codec
Format profile                           : LC
Codec ID                                 : 40
Duration                                 : 12mn 9s
Bit rate mode                            : Constant
Bit rate                                 : 128 Kbps
Channel(s)                               : 2 channels
Channel positions                        : Front: L R
Sampling rate                            : 48.0 KHz
Frame rate                               : 46.875 fps (1024 spf)
Compression mode                         : Lossy
Stream size                              : 11.1 MiB (2%)
Default                                  : Yes
Alternate group                          : 1
Encoded date                             : UTC 1904-01-01 00:00:00
Tagged date                              : UTC 1904-01-01 00:00:00

Related Torrents
Torrent Name   AGE FILES SIZE

 Date: 04/29/16 20:59   in : Hardcore 

332 days 1

 Date: 04/29/16 16:31   in : Hardcore 

332 days 1 360.1 MB

 Date: 04/29/16 15:31   in : Hardcore 

332 days 1 1,023.8 MB

 Date: 04/29/16 15:21   in : Hardcore 

332 days 1

 Date: 04/29/16 15:17   in : Hardcore 

332 days 1

 Date: 04/29/16 15:12   in : Hardcore 

332 days 1 966.2 MB

 Date: 04/29/16 15:11   in : Hardcore 

332 days 1 238.5 MB

 Date: 04/29/16 15:04   in : Hardcore 

332 days 1 331.8 MB

 Date: 04/29/16 13:34   in : Hardcore 

332 days 1 242.6 MB

 Date: 04/29/16 10:37   in : Hardcore 

332 days 1 298.1 MB

 Date: 04/29/16 10:29   in : Hardcore 

332 days 1

 Date: 04/29/16 09:44   in : Hardcore 

332 days 1