NEW BEST ADULT Torrent..Tsss....only for you!

Direct Download KellyMadison.15.07.24.Kelly.Madison.And.Kiara.Mia.CFNM.XXX.INTERNAL.1080p.MP4-KTR torrent

download torrent
Size: 2.9 GB
Downloaded: 184
Hits: 1294

KellyMadison.15.07.24.Kelly.Madison.And.Kiara.Mia.CFNM.XXX.
INTERNAL.1080p.MP4-KTR
Genre.......: Adult
Files.......: 63
Video.......: MP4
Date........: 2015-07-24
URL.........: http://www.kellymadison.com/tour/
Reposted video from 2012.

Video
ID                                       : 1
Format                                   : AVC
Format/Info                              : Advanced Video Codec
Format profile                           : [email protected]
Format settings, CABAC                   : No
Format settings, ReFrames                : 3 frames
Codec ID                                 : avc1
Codec ID/Info                            : Advanced Video Coding
Duration                                 : 46mn 20s
Bit rate                                 : 8 704 Kbps
Width                                    : 1 920 pixels
Height                                   : 1 080 pixels
Display aspect ratio                     : 16:9
Frame rate mode                          : Constant
Frame rate                               : 29.970 fps
Color space                              : YUV
Chroma subsampling                       : 4:2:0
Bit depth                                : 8 bits
Scan type                                : Progressive
Bits/(Pixel*Frame)                       : 0.140
Stream size                              : 2.85 GiB (98%)
Writing library                          : x264 core 138
Encoding settings                        : cabac=0 / ref=3 / deblock=1:0:0 / analyse=0x1:0x111 / me=hex / subme=7 / psy=1 / psy_rd=1.00:0.00 / mixed_ref=1 / me_range=16 / chroma_me=1 / trellis=1 / 8x8dct=0 / cqm=0 / deadzone=21,11 / fast_pskip=1 / chroma_qp_offset=-2 / threads=36 / lookahead_threads=6 / sliced_threads=0 / nr=0 / decimate=1 / interlaced=0 / bluray_compat=0 / stitchable=1 / constrained_intra=0 / bframes=0 / weightp=0 / keyint=3596 / keyint_min=29 / scenecut=50 / intra_refresh=0 / rc_lookahead=40 / rc=2pass / mbtree=1 / bitrate=8704 / ratetol=50.0 / qcomp=0.60 / qpmin=0 / qpmax=69 / qpstep=4 / cplxblur=20.0 / qblur=0.5 / ip_ratio=1.40 / aq=1:1.00
Encoded date                             : UTC 1904-01-01 00:00:00
Tagged date                              : UTC 1904-01-01 00:00:00
Color range                              : Limited
Color primaries                          : BT.709
Matrix coefficients                      : BT.709
Audio
ID                                       : 2
Format                                   : AAC
Format/Info                              : Advanced Audio Codec
Format profile                           : LC
Codec ID                                 : 40
Duration                                 : 46mn 20s
Duration_LastFrame                       : -15ms
Bit rate mode                            : Constant
Bit rate                                 : 160 Kbps
Channel(s)                               : 2 channels
Channel positions                        : Front: L R
Sampling rate                            : 44.1 KHz
Compression mode                         : Lossy
Stream size                              : 53.0 MiB (2%)
Encoded date                             : UTC 1904-01-01 00:00:00
Tagged date                              : UTC 1904-01-01 00:00:00

NEW adulttorrent.org - Exclusive video only

Related Torrents
Torrent Name   AGE FILES SIZE

 Date: 12/09/18 19:55   in : Homemade 

3 days 1 10 MB

 Date: 12/06/18 16:01   in : Homemade 

7 days 5 2.5 GB

 Date: 12/04/18 21:14   in : Homemade 

8 days 1 2 GB

 Date: 12/02/18 20:36   in : Homemade 

10 days 1 440.5 MB

 Date: 11/26/18 21:41   in : Homemade 

16 days 1 387.8 MB

 Date: 11/24/18 09:28   in : Homemade 

19 days 1 95.9 MB

 Date: 11/16/18 19:27   in : Homemade 

26 days 1 310.1 MB

 Date: 11/12/18 13:21   in : Homemade 

31 days 1 1.1 GB

 Date: 11/12/18 11:21   in : Homemade 

31 days 6 968.3 MB

 Date: 11/11/18 14:42   in : Homemade 

32 days 6 941.6 MB

 Date: 11/11/18 13:44   in : Homemade 

32 days 1 1.2 GB

 Date: 11/09/18 10:20   in : Homemade 

34 days 1 396.1 MB