Direct Download AllOver30.16.04.20.Nancy.Acty.XXX.720p.WMV-YAPG torrent

download torrent
Size: 287.7 MB
Downloaded: 151
Hits: 349

. .. YES !!! ANOTHER P0RN GROUP - PROUDLY PRESENTS .. .
Release Name ...... :  AllOver30.16.04.20.Nancy.Acty.XXX.720p.WMV-YAPG
URL ............... :  AllOver30.com
Media ............. :  WMV
Resolution ........ :  1280x720 - 720p
Release Date ...... :  16.04.20
Genre ............. :  Mature Women
Length ............ :   11min. 44sec.
Size .............. :  21 x 15MB 287.71 MB
.  .. R E L E A S E . I N F O R M A T I O N ..  .
Release notes :
New Porn for you.
Enjoy it
logo and info layout: YAPG     /     info last updated on : 10.10.17

Video
ID                                       : 2
Format                                   : VC-1
Format profile                           : [email protected]
Codec ID                                 : WMV3
Codec ID/Info                            : Windows Media Video 9
Codec ID/Hint                            : WMV3
Description of the codec                 : Windows Media Video 9 - Professional
Duration                                 : 11mn 44s
Bit rate mode                            : Constant
Bit rate                                 : 3 688 Kbps
Width                                    : 1 280 pixels
Height                                   : 720 pixels
Display aspect ratio                     : 16:9
Frame rate                               : 29.970 (29970/1000) fps
Bit depth                                : 8 bits
Compression mode                         : Lossy
Bits/(Pixel*Frame)                       : 0.134
Stream size                              : 310 MiB
Language                                 : English (US)
Audio
ID                                       : 1
Format                                   : WMA
Format version                           : Version 2
Codec ID                                 : 161
Codec ID/Info                            : Windows Media Audio
Description of the codec                 : Windows Media Audio 9.2 - 192 kbps, 44 kHz, stereo (A/V) 1-pass CBR
Duration                                 : 11mn 44s
Bit rate mode                            : Constant
Bit rate                                 : 192 Kbps
Channel(s)                               : 2 channels
Sampling rate                            : 44.1 KHz
Bit depth                                : 16 bits
Stream size                              : 16.1 MiB (6%)
Language                                 : English (US)


NEW adulttorrent.org - Exclusive video only

Related Torrents
Torrent Name   AGE FILES SIZE

 Date: 06/01/18 00:15   in : XXX 

507 days 1

 Date: 06/01/18 00:12   in : XXX 

507 days 1

 Date: 06/01/18 00:09   in : XXX 

507 days 1

 Date: 06/01/18 00:07   in : XXX 

507 days 1

 Date: 06/01/18 00:04   in : XXX 

507 days 1

 Date: 06/01/18 00:03   in : XXX 

507 days 1

 Date: 06/01/18 00:02   in : XXX 

507 days 1

 Date: 06/01/18 00:02   in : XXX 

507 days 1

 Date: 05/31/18 23:59   in : XXX 

507 days 1

 Date: 05/31/18 23:51   in : XXX 

507 days 1

 Date: 05/31/18 23:51   in : XXX 

507 days 1

 Date: 05/31/18 23:50   in : XXX 

507 days 1