Direct Download AllInternal - Kristy Black mp4s torrent

download torrent
Size: 386.2 MB
Downloaded: 115
Hits: 235

Cute brunette Kristy Black gets her rear-end destroyed and then enjoys a hot anal creampie which oozes out. Enjoy!

Format                                   : MPEG-4
Codec ID                                 : M4V
File size                                : 386 MiB
Duration                                 : 46mn 35s
Overall bit rate mode                    : Variable
Overall bit rate                         : 1 159 Kbps
Encoded date                             : UTC 2016-02-08 06:56:36
Tagged date                              : UTC 2016-02-08 06:56:39
?TIM                                     : 00:00:00:00
?TSC                                     : 30000
?TSZ                                     : 1001
Video
ID                                       : 1
Format                                   : AVC
Format/Info                              : Advanced Video Codec
Format profile                           : [email protected]
Format settings, CABAC                   : No
Format settings, ReFrames                : 2 frames
Codec ID                                 : avc1
Codec ID/Info                            : Advanced Video Coding
Duration                                 : 46mn 35s
Bit rate mode                            : Variable
Bit rate                                 : 998 Kbps
Maximum bit rate                         : 1 250 Kbps
Width                                    : 480 pixels
Height                                   : 270 pixels
Display aspect ratio                     : 16:9
Frame rate mode                          : Constant
Frame rate                               : 29.970 fps
Standard                                 : NTSC
Color space                              : YUV
Chroma subsampling                       : 4:2:0
Bit depth                                : 8 bits
Scan type                                : Progressive
Bits/(Pixel*Frame)                       : 0.257
Stream size                              : 332 MiB (86%)
Language                                 : English
Encoded date                             : UTC 2016-02-08 06:56:36
Tagged date                              : UTC 2016-02-08 06:56:36
Audio
ID                                       : 2
Format                                   : AAC
Format/Info                              : Advanced Audio Codec
Format profile                           : LC
Codec ID                                 : 40
Duration                                 : 46mn 35s
Source duration                          : 46mn 35s
Bit rate mode                            : Variable
Bit rate                                 : 157 Kbps
Maximum bit rate                         : 264 Kbps
Channel(s)                               : 2 channels
Channel positions                        : Front: L R
Sampling rate                            : 48.0 KHz
Compression mode                         : Lossy
Stream size                              : 52.4 MiB (14%)
Source stream size                       : 52.4 MiB
Language                                 : English
Encoded date                             : UTC 2016-02-08 06:56:36
Tagged date                              : UTC 2016-02-08 06:56:36


NEW adulttorrent.org - Exclusive video only

Related Torrents
Torrent Name   AGE FILES SIZE

 Date: 06/01/18 00:15   in : XXX 

507 days 1

 Date: 06/01/18 00:12   in : XXX 

507 days 1

 Date: 06/01/18 00:09   in : XXX 

507 days 1

 Date: 06/01/18 00:07   in : XXX 

507 days 1

 Date: 06/01/18 00:04   in : XXX 

507 days 1

 Date: 06/01/18 00:03   in : XXX 

507 days 1

 Date: 06/01/18 00:02   in : XXX 

507 days 1

 Date: 06/01/18 00:02   in : XXX 

507 days 1

 Date: 05/31/18 23:59   in : XXX 

507 days 1

 Date: 05/31/18 23:51   in : XXX 

507 days 1

 Date: 05/31/18 23:51   in : XXX 

507 days 1

 Date: 05/31/18 23:50   in : XXX 

507 days 1