Direct Download JacquieEtMichelTV - Claudia - Douce, naturelle et perverse ! mp4 torrent

download torrent
Size: 226 MB
Downloaded: 31
Hits: 82

Video
ID                          : 1
Format                      : AVC
Format/Info                 : Advanced Video Codec
Format profile              : [email protected]
Format settings, CABAC      : Yes
Format settings, ReFrames   : 6 frames
Codec ID                    : avc1
Codec ID/Info               : Advanced Video Coding
Duration                    : 36mn 14s
Bit rate                    : 802 Kbps
Width                       : 852 pixels
Height                      : 480 pixels
Display aspect ratio        : 16:9
Original display aspect rat : 16:9
Frame rate mode             : Constant
Frame rate                  : 25.000 fps
Color space                 : YUV
Chroma subsampling          : 4:2:0
Bit depth                   : 8 bits
Scan type                   : Progressive
Bits/(Pixel*Frame)          : 0.078
Stream size                 : 208 MiB (92%)
Writing library             : x264 core 132
Encoding settings           : cabac=1 / ref=6 / deblock=1:-1:-1 / analyse=0x3:0x133 / me=umh / subme=7 / psy=1 / psy_rd=1.00:0.15 / mixed_ref=1 / me_range=16 / chroma_me=1 / trellis=0 / 8x8dct=1 / cqm=0 / deadzone=21,11 / fast_pskip=0 / chroma_qp_offset=-2 / threads=12 / lookahead_threads=2 / sliced_threads=0 / nr=0 / decimate=1 / interlaced=0 / bluray_compat=0 / constrained_intra=0 / bframes=3 / b_pyramid=2 / b_adapt=2 / b_bias=0 / direct=3 / weightb=1 / open_gop=0 / weightp=2 / keyint=250 / keyint_min=25 / scenecut=40 / intra_refresh=0 / rc_lookahead=50 / rc=crf / mbtree=1 / crf=25.0 / qcomp=0.60 / qpmin=0 / qpmax=69 / qpstep=4 / ip_ratio=1.40 / aq=1:1.00
Audio
ID                          : 2
Format                      : AAC
Format/Info                 : Advanced Audio Codec
Format profile              : LC
Codec ID                    : 40
Duration                    : 36mn 14s
Bit rate mode               : Constant
Bit rate                    : 64.2 Kbps
Channel(s)                  : 2 channels
Channel positions           : Front: L R
Sampling rate               : 48.0 KHz
Frame rate                  : 46.875 fps (1024 spf)
Compression mode            : Lossy
Stream size                 : 16.6 MiB (7%)
Language                    : English
Default                     : Yes

Related Torrents
Torrent Name   AGE FILES SIZE

 Date: 11/01/17 02:03   in : XXX 

23 days 1

 Date: 11/01/17 01:59   in : XXX 

23 days 1 1.1 GB

 Date: 11/01/17 01:53   in : XXX 

23 days 1 2.5 GB

 Date: 11/01/17 01:49   in : XXX 

23 days 1 1.3 GB

 Date: 11/01/17 01:41   in : XXX 

23 days 1 4.4 GB

 Date: 11/01/17 01:31   in : XXX 

23 days 2 1.5 GB

 Date: 11/01/17 01:28   in : XXX 

23 days 1 3.5 GB

 Date: 11/01/17 01:24   in : XXX 

23 days 1 1.8 GB

 Date: 11/01/17 01:24   in : XXX 

23 days 5 858.9 MB

 Date: 11/01/17 01:23   in : XXX 

23 days 1 1.6 GB

 Date: 11/01/17 01:11   in : XXX 

23 days 4 1 GB

 Date: 11/01/17 00:51   in : XXX 

23 days 1 952.7 MB