Direct Download AllGirlNudeMassage.E13.Stephani.Moretti.And.Starla.Page.Hot.Oil.Massage.XXX.1080p.MP4-KTR torrent

Size: 10.3 GB
Downloaded: 29
Hits: 132

Closed at the request of the copyright holder.


AllGirlNudeMassage.E13.Stephani.Moretti.And.Starla.Page.Hot.
Oil.Massage.XXX.1080p.MP4-KTR
Genre.......: Adult
Files.......: 74
Video.......: MP4
Date........: 2016-09-03
URL.........: http://allgirlnudemassage.com/

Video
ID                                       : 1
Format                                   : AVC
Format/Info                              : Advanced Video Codec
Format profile                           : [email protected]
Format settings, CABAC                   : Yes
Format settings, ReFrames                : 3 frames
Codec ID                                 : avc1
Codec ID/Info                            : Advanced Video Coding
Duration                                 : 52mn 31s
Bit rate mode                            : Variable
Bit rate                                 : 28.0 Mbps
Maximum bit rate                         : 30.0 Mbps
Width                                    : 1 920 pixels
Height                                   : 1 080 pixels
Display aspect ratio                     : 16:9
Frame rate mode                          : Constant
Frame rate                               : 29.970 (30000/1001) fps
Standard                                 : NTSC
Color space                              : YUV
Chroma subsampling                       : 4:2:0
Bit depth                                : 8 bits
Scan type                                : Progressive
Bits/(Pixel*Frame)                       : 0.450
Stream size                              : 10.3 GiB (99%)
Language                                 : English
Encoded date                             : UTC 2014-05-16 10:53:54
Tagged date                              : UTC 2014-05-16 10:53:54
Color range                              : Limited
Audio
ID                                       : 2
Format                                   : AAC
Format/Info                              : Advanced Audio Codec
Format profile                           : LC
Codec ID                                 : 40
Duration                                 : 52mn 31s
Source duration                          : 52mn 31s
Bit rate mode                            : Variable
Bit rate                                 : 192 Kbps
Maximum bit rate                         : 299 Kbps
Channel(s)                               : 2 channels
Channel positions                        : Front: L R
Sampling rate                            : 48.0 KHz
Frame rate                               : 46.875 fps (1024 spf)
Compression mode                         : Lossy
Stream size                              : 71.1 MiB (1%)
Source stream size                       : 71.1 MiB (1%)
Language                                 : English
Encoded date                             : UTC 2014-05-16 10:53:54
Tagged date                              : UTC 2014-05-16 10:53:54


Related Torrents
Torrent Name   AGE FILES SIZE

 Date: 05/29/17 23:37   in : XXX 

56 min 5 1.5 GB

 Date: 05/29/17 23:19   in : XXX 

1 hour 1

 Date: 05/29/17 23:12   in : XXX 

1 hour 1

 Date: 05/29/17 23:10   in : XXX 

1 hour 1

 Date: 05/29/17 23:05   in : XXX 

1 hour 1

 Date: 05/29/17 23:03   in : XXX 

1 hour 1 2.7 GB

 Date: 05/29/17 22:55   in : XXX 

1 hour 5 3.2 GB

 Date: 05/29/17 22:52   in : XXX 

1 hour 1 1.5 GB

 Date: 05/29/17 22:33   in : XXX 

2 hours 1 1.1 GB

 Date: 05/29/17 22:25   in : XXX 

2 hours 5 4.1 GB

 Date: 05/29/17 22:13   in : XXX 

2 hours 1

 Date: 05/29/17 22:01   in : XXX 

2 hours 1