Direct Download All.Filled.Up.4.XXX.DVDRip.x264-KuKaS torrent

download torrent
Size: 1.8 GB
Downloaded: 93
Hits: 190

Proudly Presents
Title.............: All Filled Up # 4
Studio............: Perfect Gonzo
Release date......: 04/03/2016
Store Release.....: 03/23/2016
Release NFO
Source Format.....: NTSC DVD
Resolution........: crf20 @ 720x406
Video.............: 1359 kbps
Audio.............: AAC LC VBR
Format............: x264
Size..............: 39x50 MB
Running Time......: 170Min
URL...............: http://www.cduniverse.com/productinfo.asp?pid=10253259
Notes
We Dont Need Nothing, just more blonde and pink KuKaS
.__________________________.-..__.-...-..___.-..________________________///.
.:.MisterX & MisterY.:.:..  / //  / ::.::.:::.Site Scripts V2.0:
--_______________/---------___//--_//_---------_________________/\'

Video
ID                                       : 1
Format                                   : AVC
Format/Info                              : Advanced Video Codec
Format profile                           : [email protected]
Format settings, CABAC                   : Yes
Format settings, ReFrames                : 5 frames
Codec ID                                 : avc1
Codec ID/Info                            : Advanced Video Coding
Duration                                 : 2h 50mn
Bit rate                                 : 1 359 Kbps
Width                                    : 720 pixels
Height                                   : 406 pixels
Display aspect ratio                     : 16:9
Frame rate mode                          : Constant
Frame rate                               : 29.970 (30000/1001) fps
Color space                              : YUV
Chroma subsampling                       : 4:2:0
Bit depth                                : 8 bits
Scan type                                : Progressive
Bits/(Pixel*Frame)                       : 0.155
Stream size                              : 1.62 GiB (91%)
Writing library                          : x264 core 148 r2638 7599210
Encoding settings                        : cabac=1 / ref=5 / deblock=1:0:0 / analyse=0x3:0x113 / me=umh / subme=8 / psy=1 / psy_rd=1.00:0.00 / mixed_ref=1 / me_range=16 / chroma_me=1 / trellis=1 / 8x8dct=1 / cqm=0 / deadzone=21,11 / fast_pskip=0 / chroma_qp_offset=-2 / threads=13 / lookahead_threads=2 / sliced_threads=0 / nr=0 / decimate=1 / interlaced=0 / bluray_compat=0 / constrained_intra=0 / bframes=3 / b_pyramid=2 / b_adapt=2 / b_bias=0 / direct=3 / weightb=1 / open_gop=0 / weightp=2 / keyint=250 / keyint_min=25 / scenecut=40 / intra_refresh=0 / rc_lookahead=50 / rc=crf / mbtree=1 / crf=20.0 / qcomp=0.60 / qpmin=0 / qpmax=69 / qpstep=4 / ip_ratio=1.40 / aq=1:1.00
Encoded date                             : UTC 1904-01-01 00:00:00
Tagged date                              : UTC 1904-01-01 00:00:00
Audio
ID                                       : 2
Format                                   : AAC
Format/Info                              : Advanced Audio Codec
Format profile                           : LC
Codec ID                                 : 40
Duration                                 : 2h 50mn
Bit rate mode                            : Variable
Bit rate                                 : 120 Kbps
Maximum bit rate                         : 136 Kbps
Channel(s)                               : 2 channels
Channel positions                        : Front: L R
Sampling rate                            : 48.0 KHz
Frame rate                               : 46.875 fps (1024 spf)
Compression mode                         : Lossy
Stream size                              : 147 MiB (8%)
Default                                  : Yes
Alternate group                          : 1
Encoded date                             : UTC 1904-01-01 00:00:00
Tagged date                              : UTC 1904-01-01 00:00:00


NEW adulttorrent.org - Exclusive video only

Related Torrents
Torrent Name   AGE FILES SIZE

 Date: 06/01/18 00:15   in : XXX 

532 days 1

 Date: 06/01/18 00:12   in : XXX 

532 days 1

 Date: 06/01/18 00:09   in : XXX 

532 days 1

 Date: 06/01/18 00:07   in : XXX 

532 days 1

 Date: 06/01/18 00:04   in : XXX 

532 days 1

 Date: 06/01/18 00:03   in : XXX 

532 days 1

 Date: 06/01/18 00:02   in : XXX 

532 days 1

 Date: 06/01/18 00:02   in : XXX 

532 days 1

 Date: 05/31/18 23:59   in : XXX 

532 days 1

 Date: 05/31/18 23:51   in : XXX 

532 days 1

 Date: 05/31/18 23:51   in : XXX 

532 days 1

 Date: 05/31/18 23:50   in : XXX 

532 days 1