Direct Download BlackGFs.15.08.11.Ohh.Kyra.XXX.HR.MP4.KTR torrent

download torrent
Size: 315.8 MB
Downloaded: 23
Hits: 152


Video
ID                                       : 1
Format                                   : AVC
Format/Info                              : Advanced Video Codec
Format profile                           : [email protected]
Format settings, CABAC                   : No
Format settings, ReFrames                : 6 frames
Codec ID                                 : avc1
Codec ID/Info                            : Advanced Video Coding
Duration                                 : 28mn 36s
Bit rate mode                            : Variable
Bit rate                                 : 1 500 Kbps
Width                                    : 768 pixels
Height                                   : 432 pixels
Display aspect ratio                     : 16:9
Frame rate mode                          : Constant
Frame rate                               : 30.000 fps
Standard                                 : Component
Color space                              : YUV
Chroma subsampling                       : 4:2:0
Bit depth                                : 8 bits
Scan type                                : Progressive
Bits/(Pixel*Frame)                       : 0.151
Stream size                              : 308 MiB (98%)
Language                                 : English
Audio
ID                                       : 2
Format                                   : AAC
Format/Info                              : Advanced Audio Codec
Format profile                           : LC
Codec ID                                 : 40
Duration                                 : 28mn 36s
Bit rate mode                            : Constant
Bit rate                                 : 32.0 Kbps
Channel(s)                               : 1 channel
Channel positions                        : Front: C
Sampling rate                            : 32.0 KHz
Compression mode                         : Lossy
Stream size                              : 6.55 MiB (2%)
Language                                 : English

Related Torrents
Torrent Name   AGE FILES SIZE

 Date: 10/31/17 22:13   in : XXX  Porno Other 

176 days 1

 Date: 10/31/17 20:52   in : XXX  Porno Other 

176 days 1 317.9 MB

 Date: 10/31/17 20:13   in : XXX  Porno Other 

176 days 1 670.6 MB

 Date: 10/31/17 15:40   in : XXX  Porno Other 

176 days 1

 Date: 10/31/17 15:25   in : XXX  Porno Other 

176 days 1

 Date: 10/31/17 15:23   in : XXX  Porno Other 

176 days 1

 Date: 10/31/17 13:51   in : XXX  Porno Other 

176 days 1

 Date: 10/31/17 11:53   in : XXX  Porno Other 

176 days 1 520.9 MB

 Date: 10/31/17 11:05   in : XXX  Porno Other 

176 days 1 132.3 MB

 Date: 10/30/17 14:44   in : XXX  Porno Other 

177 days 18 2 GB

 Date: 10/30/17 13:58   in : XXX  Porno Other 

177 days 1

 Date: 10/30/17 11:32   in : XXX  Porno Other 

177 days 2 96.7 MB