Direct Download CzechCasting.Svetlana.Episode.6367.mp4 torrent

download torrent
Size: 246 MB
Downloaded: 20
Hits: 57


Video
ID                                       : 1
Format                                   : AVC
Format/Info                              : Advanced Video Codec
Format profile                           : [email protected]
Format settings, CABAC                   : Yes
Format settings, ReFrames                : 5 frames
Codec ID                                 : avc1
Codec ID/Info                            : Advanced Video Coding
Duration                                 : 30mn 5s
Bit rate                                 : 1 000 Kbps
Width                                    : 960 pixels
Height                                   : 540 pixels
Display aspect ratio                     : 16:9
Frame rate mode                          : Constant
Frame rate                               : 25.000 fps
Color space                              : YUV
Chroma subsampling                       : 4:2:0
Bit depth                                : 8 bits
Scan type                                : Progressive
Bits/(Pixel*Frame)                       : 0.077
Stream size                              : 217 MiB (88%)
Writing library                          : x264 core 148 r2 e86f3a1
Encoding settings                        : cabac=1 / ref=5 / deblock=1:0:0 / analyse=0x3:0x113 / me=umh / subme=8 / psy=1 / psy_rd=1.00:0.00 / mixed_ref=1 / me_range=16 / chroma_me=1 / trellis=1 / 8x8dct=1 / cqm=0 / deadzone=21,11 / fast_pskip=1 / chroma_qp_offset=-2 / threads=12 / lookahead_threads=2 / sliced_threads=0 / nr=0 / decimate=1 / interlaced=0 / bluray_compat=0 / constrained_intra=0 / bframes=3 / b_pyramid=2 / b_adapt=2 / b_bias=0 / direct=3 / weightb=1 / open_gop=0 / weightp=2 / keyint=250 / keyint_min=25 / scenecut=40 / intra_refresh=0 / rc_lookahead=50 / rc=abr / mbtree=1 / bitrate=1000 / ratetol=1.0 / qcomp=0.60 / qpmin=0 / qpmax=69 / qpstep=4 / ip_ratio=1.40 / aq=1:1.00
Audio
ID                                       : 2
Format                                   : AAC
Format/Info                              : Advanced Audio Codec
Format profile                           : LC
Codec ID                                 : 40
Duration                                 : 30mn 5s
Bit rate mode                            : Constant
Bit rate                                 : 128 Kbps
Channel(s)                               : 2 channels
Channel positions                        : Front: L R
Sampling rate                            : 48.0 KHz
Compression mode                         : Lossy
Delay relative to video                  : -1s 24ms
Stream size                              : 27.5 MiB (11%)

Related Torrents
Torrent Name   AGE FILES SIZE

 Date: 05/30/17 00:06   in : XXX  Porno Clips 

24 min 1 218.1 MB

 Date: 05/30/17 00:06   in : XXX  Porno Clips 

24 min 1 224.9 MB

 Date: 05/30/17 00:04   in : XXX  Porno Clips 

26 min 1 169.4 MB

 Date: 05/30/17 00:02   in : XXX  Porno Clips 

28 min 1 49.9 MB

 Date: 05/29/17 23:58   in : XXX  Porno Clips 

32 min 1 317.1 MB

 Date: 05/29/17 23:57   in : XXX  Porno Clips 

32 min 1 1.3 GB

 Date: 05/29/17 23:57   in : XXX  Porno Clips 

33 min 1 2.1 GB

 Date: 05/29/17 23:55   in : XXX  Porno Clips 

35 min 1 252 MB

 Date: 05/29/17 23:55   in : XXX  Porno Clips 

35 min 1 626.9 MB

 Date: 05/29/17 23:53   in : XXX  Porno Clips 

36 min 1 226.1 MB

 Date: 05/29/17 23:51   in : XXX  Porno Clips 

38 min 1 100.7 MB

 Date: 05/29/17 23:50   in : XXX  Porno Clips 

40 min 1 195.3 MB