Direct Download 18OnlyGirls.16.06.02.Divina.I.Got.The.Urge.XXX.2160p.MP4-KTR torrent

download torrent
Size: 2.6 GB
Downloaded: 91
Hits: 113

18OnlyGirls.16.06.02.Divina.I.Got.The.Urge.XXX.2160p.MP4-KTR
Genre.......: Adult
Files.......: 55
Video.......: MP4
Date........: 2016-06-02
URL.........: http://www.18onlygirls.com/

Video
ID                                       : 1
Format                                   : AVC
Format/Info                              : Advanced Video Codec
Format profile                           : [email protected]
Format settings, CABAC                   : Yes
Format settings, ReFrames                : 5 frames
Codec ID                                 : avc1
Codec ID/Info                            : Advanced Video Coding
Duration                                 : 20mn 53s
Bit rate                                 : 17.2 Mbps
Width                                    : 3 840 pixels
Height                                   : 2 160 pixels
Display aspect ratio                     : 16:9
Frame rate mode                          : Constant
Frame rate                               : 23.976 (23976/1000) fps
Color space                              : YUV
Chroma subsampling                       : 4:2:0
Bit depth                                : 8 bits
Scan type                                : Progressive
Bits/(Pixel*Frame)                       : 0.087
Stream size                              : 2.52 GiB (99%)
Writing library                          : x264 core 148 r2 3b70645
Encoding settings                        : cabac=1 / ref=5 / deblock=1:-1:-1 / analyse=0x3:0x113 / me=umh / subme=8 / psy=1 / psy_rd=1.00:0.15 / mixed_ref=1 / me_range=16 / chroma_me=1 / trellis=1 / 8x8dct=1 / cqm=0 / deadzone=21,11 / fast_pskip=1 / chroma_qp_offset=-3 / threads=24 / lookahead_threads=4 / sliced_threads=0 / nr=0 / decimate=1 / interlaced=0 / bluray_compat=0 / constrained_intra=0 / bframes=3 / b_pyramid=2 / b_adapt=2 / b_bias=0 / direct=3 / weightb=1 / open_gop=0 / weightp=2 / keyint=250 / keyint_min=23 / scenecut=40 / intra_refresh=0 / rc_lookahead=50 / rc=crf / mbtree=1 / crf=19.0 / qcomp=0.60 / qpmin=0 / qpmax=69 / qpstep=4 / ip_ratio=1.40 / aq=1:1.00
Language                                 : English
Encoded date                             : UTC 1904-01-01 00:00:00
Tagged date                              : UTC 1904-01-01 00:00:00
Audio
ID                                       : 2
Format                                   : AAC
Format/Info                              : Advanced Audio Codec
Format profile                           : LC
Codec ID                                 : 40
Duration                                 : 20mn 53s
Duration_LastFrame                       : 46ms
Bit rate mode                            : Constant
Bit rate                                 : 256 Kbps
Channel(s)                               : 2 channels
Channel positions                        : Front: L R
Sampling rate                            : 44.1 KHz
Frame rate                               : 43.066 fps (1024 spf)
Compression mode                         : Lossy
Stream size                              : 38.3 MiB (1%)
Language                                 : English
Default                                  : Yes
Alternate group                          : 1
Encoded date                             : UTC 1904-01-01 00:00:00
Tagged date                              : UTC 1904-01-01 00:00:00


NEW adulttorrent.org - Exclusive video only

Related Torrents
Torrent Name   AGE FILES SIZE

 Date: 06/01/18 00:15   in : XXX 

534 days 1

 Date: 06/01/18 00:12   in : XXX 

534 days 1

 Date: 06/01/18 00:09   in : XXX 

534 days 1

 Date: 06/01/18 00:07   in : XXX 

534 days 1

 Date: 06/01/18 00:04   in : XXX 

534 days 1

 Date: 06/01/18 00:03   in : XXX 

534 days 1

 Date: 06/01/18 00:02   in : XXX 

534 days 1

 Date: 06/01/18 00:02   in : XXX 

534 days 1

 Date: 05/31/18 23:59   in : XXX 

534 days 1

 Date: 05/31/18 23:51   in : XXX 

534 days 1

 Date: 05/31/18 23:51   in : XXX 

534 days 1

 Date: 05/31/18 23:50   in : XXX 

534 days 1