Direct Download EvilAngel - Nikki Benz, Romi Rain - Lex Turns Evil 4 mp4 torrent

download torrent
Size: 403.6 MB
Downloaded: 56
Hits: 160

Thick-lipped Nikki Benz has an ass like twin basketballs; pretty Romi Rain\'s tats show through her hooker dress. They dance outdoors, exposing naked holes. Stud Lexington Steele whips out his black 11-incher right in front of the neighbor\'s house, and the shameless lovelies kneel to blow him, spit flowing. Inside, mouth kissing leads to cocksucking and cunnilingus. Lex fucks Nikki into a frenzy as Romi masturbates Nikki\'s clit. Romi rides Lex\'s meat and both girls suck dick pussy-to-mouth -- one works the shaft, one laps the ball sac. As each slut gets hammer-fucked, the other sits on her face in a physical mash-up. The dirty-talking, orgasmic threesome climaxes with the ladies swapping spunk mouth-to-mouth.

Format                                   : MPEG-4
Format profile                           : Base Media
Codec ID                                 : isom
File size                                : 404 MiB
Duration                                 : 42mn 21s
Overall bit rate                         : 1 332 Kbps
Writing application                      : Lavf56.25.101
Video
ID                                       : 1
Format                                   : AVC
Format/Info                              : Advanced Video Codec
Format profile                           : [email protected]
Format settings, CABAC                   : Yes
Format settings, ReFrames                : 4 frames
Codec ID                                 : avc1
Codec ID/Info                            : Advanced Video Coding
Duration                                 : 42mn 21s
Bit rate                                 : 1 200 Kbps
Width                                    : 720 pixels
Height                                   : 400 pixels
Display aspect ratio                     : 16:9
Frame rate mode                          : Constant
Frame rate                               : 29.970 fps
Color space                              : YUV
Chroma subsampling                       : 4:2:0
Bit depth                                : 8 bits
Scan type                                : Progressive
Bits/(Pixel*Frame)                       : 0.139
Stream size                              : 362 MiB (90%)
Writing library                          : x264 core 142
Encoding settings                        : cabac=1 / ref=1 / deblock=1:0:0 / analyse=0x1:0 / me=dia / subme=2 / psy=1 / psy_rd=1.00:0.00 / mixed_ref=0 / me_range=16 / chroma_me=1 / trellis=0 / 8x8dct=0 / cqm=0 / deadzone=21,11 / fast_pskip=1 / chroma_qp_offset=0 / threads=48 / lookahead_threads=3 / sliced_threads=0 / nr=0 / decimate=1 / interlaced=0 / bluray_compat=0 / constrained_intra=0 / bframes=3 / b_pyramid=2 / b_adapt=1 / b_bias=0 / direct=1 / weightb=1 / open_gop=0 / weightp=2 / keyint=250 / keyint_min=25 / scenecut=40 / intra_refresh=0 / rc_lookahead=40 / rc=abr / mbtree=1 / bitrate=1200 / ratetol=1.0 / qcomp=0.60 / qpmin=0 / qpmax=69 / qpstep=4 / ip_ratio=1.40 / aq=1:1.00
Audio
ID                                       : 2
Format                                   : AAC
Format/Info                              : Advanced Audio Codec
Format profile                           : LC
Codec ID                                 : 40
Duration                                 : 42mn 21s
Duration_LastFrame                       : -17ms
Bit rate mode                            : Constant
Bit rate                                 : 128 Kbps
Channel(s)                               : 2 channels
Channel positions                        : Front: L R
Sampling rate                            : 44.1 KHz
Compression mode                         : Lossy
Stream size                              : 38.8 MiB (10%)
Language                                 : English

Related Torrents
Torrent Name   AGE FILES SIZE

 Date: 03/27/17 15:27   in : XXX  Porno Clips 

50 sec 1 113.6 MB

 Date: 03/27/17 15:26   in : XXX  Porno Clips 

1 min 1

 Date: 03/27/17 15:23   in : XXX  Porno Clips 

4 min 1 645.3 MB

 Date: 03/27/17 15:23   in : XXX  Porno Clips 

5 min 1

 Date: 03/27/17 15:19   in : XXX  Porno Clips 

9 min 1

 Date: 03/27/17 15:13   in : XXX  Porno Clips 

14 min 1

 Date: 03/27/17 15:13   in : XXX  Porno Clips 

15 min 1 123.4 MB

 Date: 03/27/17 15:12   in : XXX  Porno Clips 

16 min 1 443.5 MB

 Date: 03/27/17 15:11   in : XXX  Porno Clips 

16 min 1 196.8 MB

 Date: 03/27/17 15:10   in : XXX  Porno Clips 

18 min 1 1.4 GB

 Date: 03/27/17 15:09   in : XXX  Porno Clips 

19 min 1

 Date: 03/27/17 15:06   in : XXX  Porno Clips 

21 min 1 281.7 MB